Sunday, October 21, 2012

Warne Marsh - Someday Lounge; October 5, 1975

Warne Marsh Quartet
Someday Lounge
Merrick Long Island, New York
October 5th 1975


Warne Marsh - Tenor Saxophone
Larry Meyer - Guitar
Joe Solomon - Bass
Roger Mancuso - Drums


Sitting in:
Ted Brown - Tenor Saxophone
Lenny Popkin - Tenor Saxophone
Steve Silverman - Piano
Larry Bluth - Piano
Billy Lester - Piano
Sy Platt - Trumpet

Setlist*:

Lester Leaps In
Star Eyes
Fine & Dandy
Don't Blame Me
Donna Lee
All the Things You Are (version one)
Feather Bed
Background Music
Smog Eyes
All the Things You Are (version two)
317 East 32nd Street
Lennie's Pennies
These Foolish Things
Subconscious Lee
It's You or No One
April
All the Things You Are (version three) (cut)

Total recording time is approximately 2 1/2 hours

* - setlist is in chronological order of songs played but it is unknown as to where the actual set breaks
beyond the 1st set were. Lenny Popkin sits in on Don't Blame Me & Donna Lee. Lenny Popkin and Ted Brown sit in on All the Things You Are (version one), Feather Bed and Background Music. Ted Brown sits in on Smog Eyes. All the Things You Are (version two) through the end of the gig features various combinations of the additional players listed sitting in with the core group.

Note: This quartet with Connie Crothers on piano instead of Larry Meyer on guitar played the previous night at Carnegie Recital Hall, NYC. The Someday Lounge gig was an informally arranged (I believe by Lennie Tristano) last minute gathering on the afternoon following the Carnegie Recital Hall show.  

Recording info:
Portable Panasonic cassette recorder(mono)[on stage] > cassette master > 1st generation cassette: TDK SA-C90 (Lester Leaps In through Smog Eyes)/TDK SD-C60 (All the Things You Are (version two) through All the Things You Are (version three) > Denon cassette deck (playback) > Digital
Audio Labs Card Deluxe digital soundcard analog in > soundcard analog out > hard disk > WAV audio file > CD Wave (tracking) > Cool Edit (minor edits) > Traders' Little Helper (sector boundaries) > Shorten (lossless archive files) > Traders' Little Helper (WAV audio files) > xACT-X Audio Compression Toolkit 2.20 (Flac). Upped by alligator69@optonline.net

     xACT 2.20 shntool output:

     length     expanded size  cdr WAVE prob fmt  ratio     filename
     8:58.29       94971452 B   ---   --   ---xx   flac  0.5389  1-01 Lester Leaps In.flac
     7:10.43       75953180 B   ---   --   ---xx   flac  0.5431  1-02 Star Eyes.flac
     7:40.74       81318092 B   ---   --   ---xx   flac  0.5677  1-03 Fine and Dandy.flac
     8:29.61       89931116 B   ---   --   ---xx   flac  0.5084  1-04 Don't Blame Me.flac
    10:10.24    107660492 B   ---   --   ---xx   flac  0.5651  1-05 Donna Lee.flac
    12:17.00    130006844 B   ---   --   ---xx   flac  0.5472  1-06 All the Things You Are.flac
    12:05.04    127899452 B   ---   --   ---xx   flac  0.5484  1-07 Feather Bed.flac
    10:01.70    106181084 B   ---   --   ---xx   flac  0.5570  1-08 Background Music.flac
    10:41.01    113074796 B   ---   --   ---xx   flac  0.5470  2-01 Smog Eyes.flac
     8:41.49       92019692 B   ---   --   ---xx   flac  0.5974  2-02 All the Things You Are.flac
     6:30.03       68803100 B   ---   --   ---xx   flac  0.5627  2-03 317 East 32nd Street.flac
    11:17.09    119444012 B   ---   --   ---xx   flac  0.5517  2-04 Lennie's Pennies.flac
     5:01.54       53223452 B   ---   --   ---xx   flac  0.5382  2-05 These Foolish Things (a).flac
     3:38.61       38598716 B   ---   --   ---xx   flac  0.5487  2-06 These Foolish Things (b).flac
    10:34.52    111959948 B   ---   --   ---xx   flac  0.5889  2-07 Subconscious Lee.flac
     7:54.01       83615996 B   ---   --   ---xx   flac  0.5871  2-08 It's You or No One.flac
     9:06.61       96457916 B   ---   --   ---xx   flac  0.5919  2-09 April.flac
     0:17.43         3099980 B   ---   --   ---xx   flac  0.7018  2-10 All the Things You Are (cut).flac
   150:37.39 1594219320 B                                   0.5590  (18 files)

Flac fingerprints generated by xACT 2.20 on 2012-10-19 16:56:43

1-01 Lester Leaps In.flac:                         7c663ae6fb94f73f8e096020100039c3
1-02 Star Eyes.flac:                                  a2e574c918bb91c81ed39ac34e29dbad
1-03 Fine and Dandy.flac:                        9d08db9aba2e2455dd4c7e7d15361a4b
1-04 Don't Blame Me.flac:                        1c532e02d6fe9209bfe047b1d8942a35
1-05 Donna Lee.flac:                                149d7987e42f1a671c1b217ec6e03902
1-06 All the Things You Are.flac:            a0047192956644a864e4d2e15171eec4
1-07 Feather Bed.flac:                                9ec3597f061312500bd76e70ef6ecb01
1-08 Background Music.flac:                    19b5aecb078ede5d949c2c99dad74ed3
2-01 Smog Eyes.flac:                                  ca64f2b116cc44105ace979a1b6c0f47
2-02 All the Things You Are.flac:             c8d34d957a2701c92eb62eeb0f9b830f
2-03 317 East 32nd Street.flac:                   403be2bb272c0a9f2c3045ffabb61e93
2-04 Lennie's Pennies.flac:                         20338eebc86fee9e684a2ae78a42c651
2-05 These Foolish Things (a).flac:             fc91e87e7a847f29a4af92f05b1c4b42
2-06 These Foolish Things (b).flac:            7e943ff8a6dcca42e30013db28e4c242
2-07 Subconscious Lee.flac:                       1f47b241c692a0f914af4659a89388a7
2-08 It's You or No One.flac:                      6e54a9dfc82a0a42bf26756670a4ad7b
2-09 April.flac:                                             fe0edf4ec556579578afb938cf11b796
2-10 All the Things You Are (cut).flac:      19a194b7652bf38ec8f37611aba02d46


12 comments:

  1. http://www.mediafire.com/?iiqxqq6cdp1at

    ReplyDelete
  2. Monster post, alligator!
    Looks to be a great treat and a lot of fun.
    Thanks very much for the music and the accompanying details.

    ReplyDelete
  3. Thank You Alligator! A great session & very good sound quality

    ReplyDelete
  4. Thank you very much Alligator!

    ReplyDelete
  5. Thank you so much! I'll forward it to Joe Solomon...

    ReplyDelete
  6. Wonderful Alligator - thnx

    Otis Foster

    ReplyDelete
  7. Incredible !!!!
    Many thanks for this fantastic post, all concerned deserve unlimited thanks...
    Keith

    ReplyDelete
  8. more live jazz radio broadcasts a ROIO here:http://jazzserendipitylive.blogspot.com/

    ReplyDelete